Disc ID “FlkGh31a8di1BW.6u5GPBgTdM.M-

CD TOC details

Full TOC: 1 15 202295 150 18217 29395 43687 54490 65122 76997 92422 107660 125210 135997 145332 160517 177925 189682
Disc ID: FlkGh31a8di1BW.6u5GPBgTdM.M-
FreeDB: c70a870f
Total tracks: 15
Total length: 44:57
Track details:
Track Start Length End
Time Sectors Time Sectors Time Sectors
1 0:02 150 4:01 18067 4:03 18217
2 4:03 18217 2:29 11178 6:32 29395
3 6:32 29395 3:11 14292 9:42 43687
4 9:42 43687 2:24 10803 12:07 54490
5 12:07 54490 2:22 10632 14:28 65122
6 14:28 65122 2:38 11875 17:07 76997
7 17:07 76997 3:26 15425 20:32 92422
8 20:32 92422 3:23 15238 23:55 107660
9 23:55 107660 3:54 17550 27:49 125210
10 27:49 125210 2:24 10787 30:13 135997
11 30:13 135997 2:04 9335 32:18 145332
12 32:18 145332 3:22 15185 35:40 160517
13 35:40 160517 3:52 17408 39:32 177925
14 39:32 177925 2:37 11757 42:09 189682
15 42:09 189682 2:48 12613 44:57 202295

Attached to releases

Position Title Artist Format Date Country Label Catalog# Barcode
5/14 Capitol Records Concept Albums Frank Sinatra CD Capitol Records (imprint of Capitol Records, Inc.) 724359889627 724359889627