Disc ID “FkTXIf9OVlqRI3.scj0.gCQqxdQ-

CD TOC details

Full TOC: 1 29 312047 150 34325 37213 40796 54474 58497 76030 79036 99333 109600 113145 126981 132684 147005 151894 157704 162891 167834 175678 183421 206571 209797 213907 231779 237572 242692 253905 274694 284869
Disc ID: FkTXIf9OVlqRI3.scj0.gCQqxdQ-
FreeDB: aa103e1d
Total tracks: 29
Total length: 1:09:21
Track details:
Track Start Length End
Time Sectors Time Sectors Time Sectors
1 0:02 150 7:36 34175 7:38 34325
2 7:38 34325 0:39 2888 8:16 37213
3 8:16 37213 0:48 3583 9:04 40796
4 9:04 40796 3:02 13678 12:06 54474
5 12:06 54474 0:54 4023 13:00 58497
6 13:00 58497 3:54 17533 16:54 76030
7 16:54 76030 0:40 3006 17:34 79036
8 17:34 79036 4:31 20297 22:04 99333
9 22:04 99333 2:17 10267 24:21 109600
10 24:21 109600 0:47 3545 25:09 113145
11 25:09 113145 3:04 13836 28:13 126981
12 28:13 126981 1:16 5703 29:29 132684
13 29:29 132684 3:11 14321 32:40 147005
14 32:40 147005 1:05 4889 33:45 151894
15 33:45 151894 1:17 5810 35:03 157704
16 35:03 157704 1:09 5187 36:12 162891
17 36:12 162891 1:06 4943 37:18 167834
18 37:18 167834 1:45 7844 39:02 175678
19 39:02 175678 1:43 7743 40:46 183421
20 40:46 183421 5:09 23150 45:54 206571
21 45:54 206571 0:43 3226 46:37 209797
22 46:37 209797 0:55 4110 47:32 213907
23 47:32 213907 3:58 17872 51:30 231779
24 51:30 231779 1:17 5793 52:48 237572
25 52:48 237572 1:08 5120 53:56 242692
26 53:56 242692 2:30 11213 56:25 253905
27 56:25 253905 4:37 20789 1:01:03 274694
28 1:01:03 274694 2:16 10175 1:03:18 284869
29 1:03:18 284869 6:02 27178 1:09:21 312047

Attached to releases

Position Title Artist Format Date Country Label Catalog# Barcode
1/3 Matthäuspassion Johann Sebastian Bach; Stuttgarter Kantorei, Ensemble 94, Kay Johannsen CD Stuttgarter Kantorei