Disc ID “DOtvxYnEVZlU7SskifZS_8N7cCQ-

CD TOC details

Full TOC: 1 17 319572 150 16217 33007 51030 70307 92055 112380 130795 149090 167405 184477 202475 228615 250715 269635 288482 304230
Disc ID: DOtvxYnEVZlU7SskifZS_8N7cCQ-
FreeDB: 0b10a211
Total tracks: 17
Total length: 1:11:01
Track details:
Track Start Length End
Time Sectors Time Sectors Time Sectors
1 0:02 150 3:34 16067 3:36 16217
2 3:36 16217 3:44 16790 7:20 33007
3 7:20 33007 4:00 18023 11:20 51030
4 11:20 51030 4:17 19277 15:37 70307
5 15:37 70307 4:50 21748 20:27 92055
6 20:27 92055 4:31 20325 24:58 112380
7 24:58 112380 4:06 18415 29:04 130795
8 29:04 130795 4:04 18295 33:08 149090
9 33:08 149090 4:04 18315 37:12 167405
10 37:12 167405 3:48 17072 41:00 184477
11 41:00 184477 4:00 17998 45:00 202475
12 45:00 202475 5:49 26140 50:48 228615
13 50:48 228615 4:55 22100 55:43 250715
14 55:43 250715 4:12 18920 59:55 269635
15 59:55 269635 4:11 18847 1:04:06 288482
16 1:04:06 288482 3:30 15748 1:07:36 304230
17 1:07:36 304230 3:25 15342 1:11:01 319572

Attached to releases

Position Title Artist Format Date Country Label Catalog# Barcode
3/3 The Complete Blue Note Recordings Herbie Nichols CD Mosaic Records (US jazz reissues) MD3-118 [none]