Disc ID “DN2CroCVF3TvNHAQX0.mZ40wJpg-”

CD TOC details

Full TOC: 1 8 297362 150 38176 86312 132123 167085 214127 230870 260629
Disc ID: DN2CroCVF3TvNHAQX0.mZ40wJpg-
FreeDB: 6c0f7a08
Total tracks: 8
Total length: 1:06:05
Track details:
Track Start Length End
Time Sectors Time Sectors Time Sectors
1 0:02 150 8:27 38026 8:29 38176
2 8:29 38176 10:42 48136 19:11 86312
3 19:11 86312 10:11 45811 29:22 132123
4 29:22 132123 7:46 34962 37:08 167085
5 37:08 167085 10:27 47042 47:35 214127
6 47:35 214127 3:43 16743 51:18 230870
7 51:18 230870 6:37 29759 57:55 260629
8 57:55 260629 8:10 36733 1:06:05 297362

Attached to releases

Position Title Artist Format Date Country Label Catalog# Barcode
1/1 Saga Lydis hubert winter quartett CD Acoustic Music Records 319.1269.242 4013429112694