Disc ID “CfMonbWEmkO6tDj8k0KBoRXrH6M-

CD TOC details

Full TOC: 1 14 328725 150 20900 38157 72165 94272 108355 140297 158177 180132 195897 218614 240891 261516 277679
Disc ID: CfMonbWEmkO6tDj8k0KBoRXrH6M-
FreeDB: b1111d0e
Total tracks: 14
Total length: 1:13:03
Track details:
Track Start Length End
Time Sectors Time Sectors Time Sectors
1 0:02 150 4:37 20750 4:39 20900
2 4:39 20900 3:50 17257 8:29 38157
3 8:29 38157 7:33 34008 16:02 72165
4 16:02 72165 4:55 22107 20:57 94272
5 20:57 94272 3:08 14083 24:05 108355
6 24:05 108355 7:06 31942 31:11 140297
7 31:11 140297 3:58 17880 35:09 158177
8 35:09 158177 4:53 21955 40:02 180132
9 40:02 180132 3:30 15765 43:32 195897
10 43:32 195897 5:03 22717 48:35 218614
11 48:35 218614 4:57 22277 53:32 240891
12 53:32 240891 4:35 20625 58:07 261516
13 58:07 261516 3:36 16163 1:01:42 277679
14 1:01:42 277679 11:21 51046 1:13:03 328725

Attached to releases

Position Title Artist Format Date Country Label Catalog# Barcode
1/1 Blonde on Blonde (Cover: "2-Record Set on 1 Compact Disc") Bob Dylan CD Columbia (imprint owned by CBS between 1938–1990 within US/CA/MX; owned worldwide by Sony Music Entertainment since 1991 except in JP) CGK 841 074640084126
1/1 Blonde on Blonde Bob Dylan CD Columbia (imprint owned by CBS between 1938–1990 within US/CA/MX; owned worldwide by Sony Music Entertainment since 1991 except in JP) CD 644114 2
1/1 Blonde on Blonde Bob Dylan CD Columbia (imprint owned by CBS between 1938–1990 within US/CA/MX; owned worldwide by Sony Music Entertainment since 1991 except in JP) 512352 2, 5123522000, COL 512352-2 5099751235224
1/1 Blonde on Blonde Bob Dylan CD Columbia (imprint owned by CBS between 1938–1990 within US/CA/MX; owned worldwide by Sony Music Entertainment since 1991 except in JP) CK 92400 827969240021
1/1 Blonde on Blonde Bob Dylan CD Columbia (imprint owned by CBS between 1938–1990 within US/CA/MX; owned worldwide by Sony Music Entertainment since 1991 except in JP) 512352 5 5099751235255
1/1 Blonde on Blonde Bob Dylan CD Sony Records International (Japanese TEXTLESS walking eye imprint) MHCP-373 4562109407969
1/1 Blonde on Blonde Bob Dylan CD Columbia (imprint owned by CBS between 1938–1990 within US/CA/MX; owned worldwide by Sony Music Entertainment since 1991 except in JP) 5123525000 5099751235255
1/1 Blonde on Blonde Bob Dylan CD Columbia (imprint owned by CBS between 1938–1990 within US/CA/MX; owned worldwide by Sony Music Entertainment since 1991 except in JP) CDCBS 66012 5099706601227
1/1 Blonde on Blonde Bob Dylan CD Sony BMG Music Entertainment (Aug 5, 2004 - Oct 1, 2008; do not use if a specific sub-label is available) 82876736032 828767360324
1/1 Blonde on Blonde Bob Dylan CD Columbia (imprint owned by CBS between 1938–1990 within US/CA/MX; owned worldwide by Sony Music Entertainment since 1991 except in JP) 88697139782 886971397826
1/1 Blonde on Blonde Bob Dylan CD Columbia (imprint owned by CBS between 1938–1990 within US/CA/MX; owned worldwide by Sony Music Entertainment since 1991 except in JP) CK 64411 [none]
8/10 The Bob Dylan 60's Collection Bob Dylan CD Columbia (imprint owned by CBS between 1938–1990 within US/CA/MX; owned worldwide by Sony Music Entertainment since 1991 except in JP) 88697 51773 2 886975177325
1/1 Blonde on Blonde Bob Dylan Blu-spec CD Sony Music Japan International Inc. (Do not use as a label, see the annotation.) SICP 20091 4547366044904
1/1 Blonde on Blonde Bob Dylan CD Sony Music (global brand, excluding JP, owned by Sony Music Entertainment; for use as release label only when no sub-label/imprint is specified) 88697594202 886975942022
1/1 Blonde on Blonde Bob Dylan CD Sony Music (global brand, excluding JP, owned by Sony Music Entertainment; for use as release label only when no sub-label/imprint is specified) 88697995662 886979956629
2/2 2cd: Highway 61 Revisited / Blonde on Blonde Bob Dylan CD Sony Music (global brand, excluding JP, owned by Sony Music Entertainment; for use as release label only when no sub-label/imprint is specified) 88697594202 886975942022