Disc ID “CWh3_fPl4mRB2E3Ha02E3IOq17A-”

CD TOC details

Full TOC: 1 14 274835 150 20003 39908 58045 77423 97411 114888 135824 152484 170743 193142 210937 233589 251606
Disc ID: CWh3_fPl4mRB2E3Ha02E3IOq17A-
FreeDB: aa0e4e0e
Total tracks: 14
Total length: 1:01:04
Track details:
Track Start Length End
Time Sectors Time Sectors Time Sectors
1 0:02 150 4:25 19853 4:27 20003
2 4:27 20003 4:25 19905 8:52 39908
3 8:52 39908 4:02 18137 12:54 58045
4 12:54 58045 4:18 19378 17:12 77423
5 17:12 77423 4:27 19988 21:39 97411
6 21:39 97411 3:53 17477 25:32 114888
7 25:32 114888 4:39 20936 30:11 135824
8 30:11 135824 3:42 16660 33:53 152484
9 33:53 152484 4:03 18259 37:57 170743
10 37:57 170743 4:59 22399 42:55 193142
11 42:55 193142 3:57 17795 46:52 210937
12 46:52 210937 5:02 22652 51:55 233589
13 51:55 233589 4:00 18017 55:55 251606
14 55:55 251606 5:10 23229 1:01:04 274835

Attached to releases

Position Title Artist Format Date Country Label Catalog# Barcode
1/1 Talk on Corners The Corrs CD 143 Records, Atlantic (Warner Music imprint), Lava (imprint of Lava Music, LLC since 2009) 83106-2 075678310621
1/1 Talk on Corners The Corrs CD 143 Records, Atlantic (Warner Music imprint), Lava (imprint of Lava Music, LLC since 2009) 7567-83106-2 075678310621