Disc ID “7.A6DBx.9o.aK13HVSs74hss.bY-

CD TOC details

Full TOC: 1 12 196572 150 16460 36072 48220 63220 79272 101145 117517 130927 145440 162520 177930
Disc ID: 7.A6DBx.9o.aK13HVSs74hss.bY-
FreeDB: a60a3a0c
Total tracks: 12
Total length: 43:41
Track details:
Track Start Length End
Time Sectors Time Sectors Time Sectors
1 0:02 150 3:37 16310 3:39 16460
2 3:39 16460 4:21 19612 8:01 36072
3 8:01 36072 2:42 12148 10:43 48220
4 10:43 48220 3:20 15000 14:03 63220
5 14:03 63220 3:34 16052 17:37 79272
6 17:37 79272 4:52 21873 22:29 101145
7 22:29 101145 3:38 16372 26:07 117517
8 26:07 117517 2:59 13410 29:06 130927
9 29:06 130927 3:14 14513 32:19 145440
10 32:19 145440 3:48 17080 36:07 162520
11 36:07 162520 3:25 15410 39:32 177930
12 39:32 177930 4:09 18642 43:41 196572

Attached to releases

Position Title Artist Format Date Country Label Catalog# Barcode
4/14 Capitol Records Concept Albums Frank Sinatra CD Capitol Records (imprint of Capitol Records, Inc.) 724359889627 724359889627