Disc ID “6rqKmdCRdgdFpWMoDTLPcfZpCvg-

CD TOC details

Full TOC: 1 8 273422 150 73890 91075 108690 131820 187370 203002 257447
Disc ID: 6rqKmdCRdgdFpWMoDTLPcfZpCvg-
FreeDB: 780e3b08
Total tracks: 8
Total length: 1:00:46
Track details:
Track Start Length End
Time Sectors Time Sectors Time Sectors
1 0:02 150 16:23 73740 16:25 73890
2 16:25 73890 3:49 17185 20:14 91075
3 20:14 91075 3:55 17615 24:09 108690
4 24:09 108690 5:08 23130 29:18 131820
5 29:18 131820 12:21 55550 41:38 187370
6 41:38 187370 3:28 15632 45:07 203002
7 45:07 203002 12:06 54445 57:13 257447
8 57:13 257447 3:33 15975 1:00:46 273422

Attached to releases

Position Title Artist Format Date Country Label Catalog# Barcode
1/1 Sketches of Spain (remaster) Miles Davis CD Columbia (imprint owned by CBS between 1938–1990 within US/CA/MX; owned worldwide by Sony Music Entertainment since 1991 except in JP), Legacy (Legacy Recordings) CK 65142 074646514221
1/1 Sketches of Spain (remaster) Miles Davis CD Columbia (imprint owned by CBS between 1938–1990 within US/CA/MX; owned worldwide by Sony Music Entertainment since 1991 except in JP), Legacy (Legacy Recordings) CK 65142 5099706514220
1/1 Sketches of Spain (remaster) Miles Davis CD Columbia (imprint owned by CBS between 1938–1990 within US/CA/MX; owned worldwide by Sony Music Entertainment since 1991 except in JP), Legacy (Legacy Recordings) CK 65142 074646514221