Disc ID “56OuXfbsG0nnEfqbXa7cal3Zes4-

CD TOC details

Full TOC: 1 8 273637 150 73963 91358 109290 132136 187712 203148 257663
Disc ID: 56OuXfbsG0nnEfqbXa7cal3Zes4-
FreeDB: 6e0e3e08
Total tracks: 8
Total length: 1:00:48
Track details:
Track Start Length End
Time Sectors Time Sectors Time Sectors
1 0:02 150 16:24 73813 16:26 73963
2 16:26 73963 3:52 17395 20:18 91358
3 20:18 91358 3:59 17932 24:17 109290
4 24:17 109290 5:05 22846 29:22 132136
5 29:22 132136 12:21 55576 41:43 187712
6 41:43 187712 3:26 15436 45:09 203148
7 45:09 203148 12:07 54515 57:16 257663
8 57:16 257663 3:33 15974 1:00:48 273637

Attached to releases

Position Title Artist Format Date Country Label Catalog# Barcode
1/1 Sketches of Spain (remaster) Miles Davis CD Columbia (imprint owned by CBS between 1938–1990 within US/CA/MX; owned worldwide by Sony Music Entertainment since 1991 except in JP), Legacy (Legacy Recordings) CK 65142 074646514221
1/1 Sketches of Spain (remaster) Miles Davis CD Columbia (imprint owned by CBS between 1938–1990 within US/CA/MX; owned worldwide by Sony Music Entertainment since 1991 except in JP), Legacy (Legacy Recordings) CK 65142 5099706514220
1/1 Sketches of Spain (remaster) Miles Davis CD Columbia (imprint owned by CBS between 1938–1990 within US/CA/MX; owned worldwide by Sony Music Entertainment since 1991 except in JP), Legacy (Legacy Recordings) CK 65142 074646514221
12/71 The Complete Columbia Album Collection Miles Davis CD Columbia (imprint owned by CBS between 1938–1990 within US/CA/MX; owned worldwide by Sony Music Entertainment since 1991 except in JP) 88697524922 886975249220
6/22 The Perfect Miles Davis Collection Miles Davis CD Columbia (imprint owned by CBS between 1938–1990 within US/CA/MX; owned worldwide by Sony Music Entertainment since 1991 except in JP), Legacy (Legacy Recordings) 88697961482 886979614826