Disc ID “53JaKfWSxzc0I2DDTPWZBtitzZA-

CD TOC details

Full TOC: 1 14 328670 150 20922 38180 72187 94295 108377 140320 158202 180200 195952 218642 240920 261545 277707
Disc ID: 53JaKfWSxzc0I2DDTPWZBtitzZA-
FreeDB: b9111c0e
Total tracks: 14
Total length: 1:13:02
Track details:
Track Start Length End
Time Sectors Time Sectors Time Sectors
1 0:02 150 4:37 20772 4:39 20922
2 4:39 20922 3:50 17258 8:29 38180
3 8:29 38180 7:33 34007 16:02 72187
4 16:02 72187 4:55 22108 20:57 94295
5 20:57 94295 3:08 14082 24:05 108377
6 24:05 108377 7:06 31943 31:11 140320
7 31:11 140320 3:58 17882 35:09 158202
8 35:09 158202 4:53 21998 40:03 180200
9 40:03 180200 3:30 15752 43:33 195952
10 43:33 195952 5:03 22690 48:35 218642
11 48:35 218642 4:57 22278 53:32 240920
12 53:32 240920 4:35 20625 58:07 261545
13 58:07 261545 3:35 16162 1:01:43 277707
14 1:01:43 277707 11:20 50963 1:13:02 328670

Attached to releases

Position Title Artist Format Date Country Label Catalog# Barcode
1/1 Blonde on Blonde (Cover: "2-Record Set on 1 Compact Disc") Bob Dylan CD Columbia (imprint owned by CBS between 1938–1990 within US/CA/MX; owned worldwide by Sony Music Entertainment since 1991 except in JP) CGK 841 074640084126
1/1 Blonde on Blonde Bob Dylan CD Columbia (imprint owned by CBS between 1938–1990 within US/CA/MX; owned worldwide by Sony Music Entertainment since 1991 except in JP) CD 644114 2
1/1 Blonde on Blonde Bob Dylan CD Columbia (imprint owned by CBS between 1938–1990 within US/CA/MX; owned worldwide by Sony Music Entertainment since 1991 except in JP) 512352 2, 5123522000, COL 512352-2 5099751235224
1/1 Blonde on Blonde Bob Dylan CD Columbia (imprint owned by CBS between 1938–1990 within US/CA/MX; owned worldwide by Sony Music Entertainment since 1991 except in JP) CK 92400 827969240021
1/1 Blonde on Blonde Bob Dylan SACD Columbia (imprint owned by CBS between 1938–1990 within US/CA/MX; owned worldwide by Sony Music Entertainment since 1991 except in JP) CS 841 074640084164
1/1 Blonde on Blonde Bob Dylan CD Columbia (imprint owned by CBS between 1938–1990 within US/CA/MX; owned worldwide by Sony Music Entertainment since 1991 except in JP) 512352 5 5099751235255
1/1 Blonde on Blonde Bob Dylan SACD SME Records (Japanese imprint - not equivalent to "Sony Music Entertainment") SRGS 4531
1/1 Blonde on Blonde Bob Dylan CD Sony Records International (Japanese TEXTLESS walking eye imprint) MHCP-373 4562109407969
1/1 Blonde on Blonde Bob Dylan CD Columbia (imprint owned by CBS between 1938–1990 within US/CA/MX; owned worldwide by Sony Music Entertainment since 1991 except in JP) 5123525000 5099751235255
1/1 Blonde on Blonde Bob Dylan CD Columbia (imprint owned by CBS between 1938–1990 within US/CA/MX; owned worldwide by Sony Music Entertainment since 1991 except in JP) CDCBS 66012 5099706601227
1/1 Blonde on Blonde Bob Dylan CD Sony BMG Music Entertainment (Aug 5, 2004 - Oct 1, 2008; do not use if a specific sub-label is available) 82876736032 828767360324
1/1 Blonde on Blonde Bob Dylan CD Columbia (imprint owned by CBS between 1938–1990 within US/CA/MX; owned worldwide by Sony Music Entertainment since 1991 except in JP) 88697139782 886971397826
1/1 Blonde on Blonde Bob Dylan CD Columbia (imprint owned by CBS between 1938–1990 within US/CA/MX; owned worldwide by Sony Music Entertainment since 1991 except in JP) CK 64411 [none]
8/10 The Bob Dylan 60's Collection Bob Dylan CD Columbia (imprint owned by CBS between 1938–1990 within US/CA/MX; owned worldwide by Sony Music Entertainment since 1991 except in JP) 88697 51773 2 886975177325
1/1 Blonde on Blonde Bob Dylan Blu-spec CD Sony Music Japan International Inc. (Do not use as a label, see the annotation.) SICP 20091 4547366044904
1/1 Blonde on Blonde Bob Dylan CD Sony Music (global brand, excluding JP, owned by Sony Music Entertainment; for use as release label only when no sub-label/imprint is specified) 88697594202 886975942022