Disc ID “3rAy5SVVPkDJcbm5dA7yKrQuObI-

CD TOC details

Full TOC: 1 16 187737 150 14815 25972 37307 47570 57655 68467 79462 89262 100652 112545 124517 138830 152032 165070 173945
Disc ID: 3rAy5SVVPkDJcbm5dA7yKrQuObI-
FreeDB: c609c510
Total tracks: 16
Total length: 41:43
Track details:
Track Start Length End
Time Sectors Time Sectors Time Sectors
1 0:02 150 3:16 14665 3:18 14815
2 3:18 14815 2:29 11157 5:46 25972
3 5:46 25972 2:31 11335 8:17 37307
4 8:17 37307 2:17 10263 10:34 47570
5 10:34 47570 2:14 10085 12:49 57655
6 12:49 57655 2:24 10812 15:13 68467
7 15:13 68467 2:27 10995 17:39 79462
8 17:39 79462 2:11 9800 19:50 89262
9 19:50 89262 2:32 11390 22:22 100652
10 22:22 100652 2:39 11893 25:01 112545
11 25:01 112545 2:40 11972 27:40 124517
12 27:40 124517 3:11 14313 30:51 138830
13 30:51 138830 2:56 13202 33:47 152032
14 33:47 152032 2:54 13038 36:41 165070
15 36:41 165070 1:58 8875 38:39 173945
16 38:39 173945 3:04 13792 41:43 187737

Attached to releases

Position Title Artist Format Date Country Label Catalog# Barcode
1/14 Capitol Records Concept Albums Frank Sinatra CD Capitol Records (imprint of Capitol Records, Inc.) 724359889627 724359889627