Disc ID “1_fWBvuwnb4CJgnoUyCiCwAUtoU-

CD TOC details

Full TOC: 1 10 143025 150 13459 28707 42947 58267 71790 86205 100132 114662 129345
Disc ID: 1_fWBvuwnb4CJgnoUyCiCwAUtoU-
FreeDB: 9007710a
Total tracks: 10
Total length: 31:47
Track details:
Track Start Length End
Time Sectors Time Sectors Time Sectors
1 0:02 150 2:57 13309 2:59 13459
2 2:59 13459 3:23 15248 6:23 28707
3 6:23 28707 3:10 14240 9:33 42947
4 9:33 42947 3:24 15320 12:57 58267
5 12:57 58267 3:00 13523 15:57 71790
6 15:57 71790 3:12 14415 19:09 86205
7 19:09 86205 3:06 13927 22:15 100132
8 22:15 100132 3:14 14530 25:29 114662
9 25:29 114662 3:16 14683 28:45 129345
10 28:45 129345 3:02 13680 31:47 143025

Attached to releases

Position Title Artist Format Date Country Label Catalog# Barcode
1/1 Smile Smile CD EMI (EMI Records, since 1972), Medley Records EMI 4958912 724349589124