Disc ID “1RzjyYX4wpyCDMzyRj55kCXutNQ-

CD TOC details

Full TOC: 1 7 216112 150 44217 91190 135022 165182 180497 194400
Disc ID: 1RzjyYX4wpyCDMzyRj55kCXutNQ-
FreeDB: 4e0b3f07
Total tracks: 7
Total length: 48:01
Track details:
Track Start Length End
Time Sectors Time Sectors Time Sectors
1 0:02 150 9:48 44067 9:50 44217
2 9:50 44217 10:26 46973 20:16 91190
3 20:16 91190 9:44 43832 30:00 135022
4 30:00 135022 6:42 30160 36:42 165182
5 36:42 165182 3:24 15315 40:07 180497
6 40:07 180497 3:05 13903 43:12 194400
7 43:12 194400 4:49 21712 48:01 216112

Attached to releases

Position Title Artist Format Date Country Label Catalog# Barcode
2/2 The Complete Science Fiction Sessions Ornette Coleman CD Columbia (imprint owned by CBS between 1938–1990 within US/CA/MX; owned worldwide by Sony Music Entertainment since 1991 except in JP), Legacy (Legacy Recordings) C2K 63569 074646356920