Disc ID “1BudDrRQcUXIjKM0bwmaHOEN96s-

CD TOC details

Full TOC: 1 8 273417 150 73877 91062 108677 131807 187357 202990 257435
Disc ID: 1BudDrRQcUXIjKM0bwmaHOEN96s-
FreeDB: 780e3b08
Total tracks: 8
Total length: 1:00:46
Track details:
Track Start Length End
Time Sectors Time Sectors Time Sectors
1 0:02 150 16:23 73727 16:25 73877
2 16:25 73877 3:49 17185 20:14 91062
3 20:14 91062 3:55 17615 24:09 108677
4 24:09 108677 5:08 23130 29:17 131807
5 29:17 131807 12:21 55550 41:38 187357
6 41:38 187357 3:28 15633 45:07 202990
7 45:07 202990 12:06 54445 57:12 257435
8 57:12 257435 3:33 15982 1:00:46 273417

Attached to releases

Position Title Artist Format Date Country Label Catalog# Barcode
1/1 Sketches of Spain (remaster) Miles Davis CD Columbia (imprint owned by CBS between 1938–1990 within US/CA/MX; owned worldwide by Sony Music Entertainment since 1991 except in JP), Legacy (Legacy Recordings) CK 65142 074646514221
1/1 Sketches of Spain (remaster) Miles Davis CD Columbia (imprint owned by CBS between 1938–1990 within US/CA/MX; owned worldwide by Sony Music Entertainment since 1991 except in JP), Legacy (Legacy Recordings) CK 65142 5099706514220
1/1 Sketches of Spain (remaster) Miles Davis CD Columbia (imprint owned by CBS between 1938–1990 within US/CA/MX; owned worldwide by Sony Music Entertainment since 1991 except in JP), Legacy (Legacy Recordings) CK 65142 074646514221